#TITLE:Pawtucket Beer Song;
#SUBTITLE:;
#ARTIST:Family Guy;
#TITLETRANSLIT:;
#SUBTITLETRANSLIT:;
#ARTISTTRANSLIT:;
#CREDIT:;
#BANNER:Pawtucket_Brewery.png;
#BACKGROUND:Pawtucket_Brewery-bg.png;
#LYRICSPATH:;
#CDTITLE:!db4title.PNG;
#MUSIC:Pawtuckets - Beer Song.mp3;
#OFFSET:-1.340;
#SAMPLESTART:0.030;
#SAMPLELENGTH:12.000;
#SELECTABLE:YES;
#BPMS:0.000=119.090,84.000=118.910,87.500=119.090;
#STOPS:72.000=1.000
,113.000=0.920
;
#BGCHANGES:;
// cache tags:
#FIRSTBEAT:4.000;
#LASTBEAT:129.500;
#SONGFILENAME:Songs/Music V.I.P ^_^/Pawtucket Beer Song/Pawtucket Beer Song.sm;
#HASMUSIC:1;
#HASBANNER:1;
#MUSICLENGTH:68.519;
// end cache tags

//---------------dance-single - ----------------
#NOTES:
     dance-single:
     :
     Hard:
     6:
     0.309,0.307,0.000,0.467,0.124,116.000,0.000,32.000,0.000,0.000:  // measure 1
0000
0000
0000
0000
,  // measure 2
1000
0100
0010
0000
,  // measure 3
0001
0100
0010
0000
,  // measure 4
0100
0000
0010
0000
2000
0000
0000
0010
,  // measure 5
3100
0010
0100
0010
1000
0000
0100
0000
,  // measure 6
1000
0100
0002
0003
,  // measure 7
0100
0010
0200
0000
,  // measure 8
0310
0001
2000
0000
,  // measure 9
3200
0000
0000
0000
,  // measure 10
0300
0002
0203
0320
,  // measure 11
0230
0302
0203
2300
,  // measure 12
0000
0000
3000
0000
0100
0010
0100
0010
,  // measure 13
0100
0000
1000
0100
,  // measure 14
0020
0000
0000
0000
0031
1000
0001
1000
,  // measure 15
0001
1000
0100
0020
,  // measure 16
0000
0000
0030
0000
0001
0100
0010
0100
,  // measure 17
0010
0000
0000
0100
0020
0000
0230
0000
,  // measure 18
0000
0000
0000
0000
0300
0000
0010
0000
0000
1000
0000
0001
0000
1000
0000
0100
,  // measure 19
0000
2000
0000
3200
0000
0320
0000
0030
,  // measure 20
0002
0000
2003
0000
,  // measure 21
3000
0000
0000
0000
0000
0000
0000
0000
0000
0000
1000
0100
1000
0100
0010
0000
,  // measure 22
0001
0010
0100
1000
0100
0010
0001
0020
,  // measure 23
0000
0000
0030
0100
0000
0010
0000
0001
,  // measure 24
0000
0000
0000
1000
0000
0100
0000
1000
,  // measure 25
0000
0000
0000
0100
0000
0010
0000
0001
,  // measure 26
0000
0000
0000
1000
0000
0000
0100
0000
0010
0000
0100
0000
1000
0000
0100
0000
,  // measure 27
0000
0001
0000
0000
0000
0000
0100
0000
0000
0000
0010
0000
0000
0000
0200
0000
,  // measure 28
0000
0000
0000
2300
0000
3002
0000
2003
,  // measure 29
0000
0000
3000
1000
0100
0000
0000
0000
,  // measure 30
2000
0000
0000
0000
0000
3200
0000
0000
0000
0000
0000
0000
0320
0000
0000
0000
,  // measure 31
0000
0000
0032
0000
0000
0000
0000
0000
0000
0203
0000
0000
0000
0000
0000
0000
,  // measure 32
0300
0000
0000
0001
0000
0010
0000
0100
0000
1000
0000
0100
0000
1000
0000
0020
,  // measure 33
0000
0000
0000
0030
0000
0000
0000
0000
;
